Стефан корнеев как сделать мебель своими руками

🕒

Общее

Полное имя : D:\Андрей\izg.mebel

Формат : Windows Media

Размер файла : 27,5 Мбайт

Режим общего битрейта : Переменный

Общий поток : 224 Кбит/сек

Максимальный общий битрейт : 384 Кбит/сек

Дата кодирования : UTC 2013-09-22 03:11:22.988

Видео

Идентификатор : 1

Формат : VC-1

Профиль формата : [email protected]

Идентификатор кодека : WVC1

Идентификатор кодека/Подсказка : Microsoft

Описание кодека : Windows Media Video 9 Advanced Profile

Вид битрейта : Переменный

Битрейт : 68,4 Кбит/сек

Ширина : 798 пикселей

Высота : 618 пикселей

Соотношение сторон : 1,291

Режим частоты кадров : Переменный

Номинальная частота кадров : 30,000 кадров/сек

Субдискретизация насыщенности : 4:2:0

Битовая глубина : 8 бит

Тип развёртки : Прогрессивная

Метод сжатия : С потерями

Язык : Russian

Аудио

Идентификатор : 2

Формат : WMA

Профиль формата : Pro

Идентификатор кодека : 162

Идентификатор кодека/Информация : Windows Media Audio

Описание кодека : Windows Media Audio 10 Professional — 128 kbps, 44 kHz, 2 channel 16 bit 1-pass CBR

Вид битрейта : Постоянный

Битрейт : 128 Кбит/сек

Каналы : 2 канала

Частота : 44,1 КГц

Битовая глубина : 16 бит

Размер потока : 15,8 Мбайт (57%)

Язык : Russian

Стефан Корнеев | Как сделать мебель своими руками (2009-2013) [PCRec]

Автор (режиссер):

Стефан Корнеев

Название:

Как сделать мебель своими руками

Год выпуска:

2009-2013

Жанр:

Обучающий видеокурс

Продолжительность:

15:17:34

Качество видео:

PCRec

Видеокодек:

WVC1

Битрейт видео:

~30fps 68kbps

Размер кадра:

798×618

Аудио

кодек:

WMA

Битрейт аудио:

44100Hz stereo 128kbps

Доп. материалы:

Есть

Описание:
14 авторских видеокурсов, которые за 15 Часов наглядно покажут и расскажут Вам все моменты изготовления мебели своими руками. В Курсах сосредоточен 10-ти летний опыт создания кухонь, шкафов, секций, прихожих, столов и пр. На упаковку этого опыта в формат видеоуроков ушло более 11 Месяцев упорного труда!

Эта коллекция курсов, не просто какие-то теоретические выкладки, а именно материал, основанный на собственном опыте автора и оформленный в самом лучшем на сегодняшний день формате — видеоуроков, а также дополненный фото и текстовой информацией.

По каждому вопросу в этих курсах, автором было опробовано и пропущено через себя огромное количество практических приёмов. Те знания, которые Вы получите, пройдя все эти курсы, на самом деле сэкономят Вам просто неприлично большое количество времени, сил и денег.

Содержание:
— Материалы
— Элементы мебели
— Дизайн мебели и интерьера
— Проектирование мебели
— Компьютерная графика
— Проектная документация
— Изготовление мебели
— Организация снабжения
— Организация рабочего места
— Монтаж мебели
— Начинающим дизайнерам
— Делаем мебель для себя
— Свой мебельный бизнес
— Дополнительная информация Изготовление мебели
01. Работа с дрелью.
02
. Работа с «болгаркой».
03. Работа с электролобзиком.
04
. Работа с фрезером.
05
. Изготовление вспомогательного оборудования. Кромочный стол.
06. Изготовление вспомогательного оборудования. Кондуктор.
07. Обработка ЛДСП. Инструменты кромления.
08
. Обработка ЛДСП. Оклейка торцов детали ламинированной кромкой.
09. Обработка ЛДСП. Оклейка торцов детали кромкой другого цвета.
10. Обработка ЛДСП. Оклейка торцов детали пластмассовым «грибком».
11
. Обработка ЛДСП. Оклейка торцов детали кромкой АБС.
12. Оклейка кромкой торцов столешницы.
13
. Расположение деталей.
14. Радиусные детали. Изготовление шаблона для фрезерования.
15
. Радиусные детали. Фрезерование деталей по шаблону.
16. Радиусные детали. Изготовление методом шлифования.
17. Обработка деталей из МДФ.
18
. Сборка и монтаж деталей из МДФ.
19
. Изготовление фасада под стекло. Способ 1. Часть 1.
20. Изготовление фасада под стекло. Способ 1. Часть 2.
21. Изготовление фасада под стекло. Способ 2.
22. Соединение деталей на шуруп.
23
. Соединение деталей на конфирмат.
24. Соединение деталей на пластмассовый уголок.
25
. Соединение деталей на эксцентрик.
26
. Сборка простого шкафчика.
27
. Прикручивание оргалита.
28. Отрывание оргалита.
29
. Глушение элементов соединения.
30. Стягивание мебельных модулей.
31
. Угловое соединение столешниц.
32
. Сборка простого навесного шкафа.
33
. Сборка углового навесного шкафа.
35. Сверла Фоснера для присадки петель.
36
. Регулировка мебельного фасада.
37. Сборка ящичной тумбы со стандартными направляющими.
38
. Навес фасадов на тумбу со стандартными направляющими.
39
. Сборка ящичной тумбы с направляющими типа металобокс.
40
. Навес фасадов на тумбу с ящиками металобокс.
41. Сборка пенала с полками и ящиками для шкафа-купе. Часть 1.
42. Сборка пенала с полками и ящиками для шкафа-купе. Часть 2.
43. Навес фасадов на пенал с ящиками. Часть3.
44. Сборка пенала с полками для шкафа-купе.
45
. Упаковка мебели.
46. Обработка искусственного камня.

Общее

Полное имя : D:\Андрей\izg.mebel

Формат : Windows Media

Размер файла : 27,5 Мбайт

Режим общего битрейта : Переменный

Общий поток : 224 Кбит/сек

Максимальный общий битрейт : 384 Кбит/сек

Дата кодирования : UTC 2013-09-22 03:11:22.988

Видео

Идентификатор : 1

Формат : VC-1

Профиль формата : [email protected]

Идентификатор кодека : WVC1

Идентификатор кодека/Подсказка : Microsoft

Описание кодека : Windows Media Video 9 Advanced Profile

Вид битрейта : Переменный

Битрейт : 68,4 Кбит/сек

Ширина : 798 пикселей

Высота : 618 пикселей

Соотношение сторон : 1,291

Режим частоты кадров : Переменный

Номинальная частота кадров : 30,000 кадров/сек

Субдискретизация насыщенности : 4:2:0

Битовая глубина : 8 бит

Тип развёртки : Прогрессивная

Метод сжатия : С потерями

Язык : Russian

Аудио

Идентификатор : 2

Формат : WMA

Профиль формата : Pro

Идентификатор кодека : 162

Идентификатор кодека/Информация : Windows Media Audio

Описание кодека : Windows Media Audio 10 Professional — 128 kbps, 44 kHz, 2 channel 16 bit 1-pass CBR

Вид битрейта : Постоянный

Битрейт : 128 Кбит/сек

Каналы : 2 канала

Частота : 44,1 КГц

Битовая глубина : 16 бит

Размер потока : 15,8 Мбайт (57%)

Язык : Russian

Скриншоты:

Время раздачи:

24/7 (круглосуточно)

У вас нет необходимых прав для просмотра вложений в этом сообщении.

%PDF-1.5
3 0 obj
>
endobj
4 0 obj
>
stream
[email protected]ÜrX &l$nKh [email protected] P7ck4߾t֒¥t[~))RJHIӏt2m}U +/TJk8;>~ć|Ĉ=.yEZP'{TL»UC!ghzpJK.N—[rN4Y7A/T*cKJ1″»Sv++e{~

14 Новых авторских видеокурсов, которые за 15 часов чистого времени покажут и расскажут Вам все моменты изготовления мебели своими руками. В курсах сосредоточен 10-ти летний опыт создания кухонь, шкафов, секций, прихожих, столов и пр.

Если Вы действительно хотите научиться самостоятельно изготавливать мебель в домашних условиях, если у Вас есть огромное желание сделать самому качественную вещь, то не важно, что Вы будете делать…..не важно, какой у Вас опыт в этом деле…..не важно, сколько денег Вы решили на это выделить…..поверьте мне — всё получится!

С большой гордостью представляю Вам плод моего упорного 11-ти месячного труда, в который я вложил весь свой опыт, методики, хитрости и прочие секреты, накопленные за десять лет.

Эта коллекция курсов, не просто какие-то теоретические выкладки, а именно материал, основанный на собственном опыте и оформленный в лучшем на сегодняшний день формате — видеоуроков, а также дополненный фото и текстовой информацией.

По каждому вопросу в этих курсах, мною было опробовано и пропущено через себя огромное количество практических приёмов.
Те знания, которые Вы получите, пройдя все эти курсы, на самом деле сэкономят Вам просто неприлично большое количество времени, сил и денег.

На диск вошли следующие курсы:
Курс по мебельным материалам

Видеокурс по элементам мебели
Курс по дизайну мебели и интерьера
Видеокурс по проектированию мебели
Видеокурс по компьютерной графике
Видеокурс по проектной документации
Видеокурс по организации снабжения
Видеокурс по организации рабочего места
Видеокурс по изготовлению мебели
Видеокурс по монтажу мебели
Видеокурс для начинающих дизайнеров
Видеокурс для домашнего мастера
Видеокурс для начинающих бизнесменов
Курс по дополнительной информации

Изготовление мебели:
— Работа с дрелью

— Работа с «болгаркой»
— Работа с электролобзиком
— Работа с фрезером
Изготовление вспомогательного оборудования. Кромочный стол
Изготовление вспомогательного оборудования. Кондуктор
Обработка ЛДСП. Инструменты кромления
Обработка ЛДСП. Оклейка торцов детали ламинированной кромкой
Обработка ЛДСП. Оклейка торцов детали кромкой другого цвета
Обработка ЛДСП. Оклейка торцов детали пластмассовым «грибком»
Обработка ЛДСП. Оклейка торцов детали кромкой АБС
— Оклейка кромкой торцов столешницы
— Расположение деталей
Радиусные детали. Изготовление шаблона для фрезерования
Радиусные детали. Фрезерование деталей по шаблону
Радиусные детали. Изготовление методом шлифования
— Обработка деталей из МДФ
— Сборка и монтаж деталей из МДФ
Изготовление фасада под стекло. Способ 1. Часть 1
Изготовление фасада под стекло. Способ 1. Часть 2
Изготовление фасада под стекло. Способ 2
— Соединение деталей на шуруп
— Соединение деталей на конфирмат
— Соединение деталей на пластмассовый уголок
— Соединение деталей на эксцентрик
— Сборка простого шкафчика
— Прикручивание оргалита
— Отрывание оргалита
— Глушение элементов соединения
— Стягивание мебельных модулей
— Угловое соединение столешниц
— Сборка простого навесного шкафа
— Сборка углового навесного шкафа
— Сверла Фоснера для присадки петель
— Регулировка мебельного фасада
— Сборка ящичной тумбы со стандартными направляющими
— Навес фасадов на тумбу со стандартными направляющими
— Сборка ящичной тумбы с направляющими типа металобокс
— Навес фасадов на тумбу с ящиками металобокс
Сборка пенала с полками и ящиками для шкафа-купе. Часть 1
Сборка пенала с полками и ящиками для шкафа-купе. Часть 2
Навес фасадов на пенал с ящиками. Часть3
— Сборка пенала с полками для шкафа-купе
— Упаковка мебели
Обработка искусственного камня

Данный материал предназначен только для серьёзных людей, которые действительно готовы учиться и применять полученные знания на практике. Информации в курсе достаточно много и большая её часть имеет практическую направленность, поэтому требует тщательной проработки и обязательного практического применения.

Здесь Вы не найдете туманной информации о том «что делать», Вы найдете только то, что отвечает на вопрос «как сделать?»

Пожалуйста, войдите или зарегистрируйтесь для просмотра скрытого текста.

Пожалуйста, войдите или зарегистрируйтесь для просмотра скрытого текста.

Пожалуйста, войдите или зарегистрируйтесь для просмотра скрытого текста.

Пожалуйста, войдите или зарегистрируйтесь для просмотра скрытого текста.

Пожалуйста, войдите или зарегистрируйтесь для просмотра скрытого текста.

Пожалуйста, войдите или зарегистрируйтесь для просмотра скрытого текста.

Год: 2015
Язык: русский
Формат: mp4
Размер: 3.68 GB
Скачать :
магнет-ссылка

Вы должны нажать кнопку ‘Мне нравится’ для возможности просмотра скрытого текста.

Автор:

Стефан Корнеев

Название:

Как сделать мебель своими руками

14 новых авторских видеокурсов, которые за 917 минут чистого времени быстро, просто, наглядно покажут и расскажут Вам все моменты изготовления мебели своими руками. В курсах сосредоточен 10-ти летний опыт создания кухонь, шкафов, секций, прихожих, столов и пр.

Эта коллекция курсов, не просто какие-то теоретические выкладки, а именно материал, основанный на собственном опыте и оформленный в самом усваиваемом на сегодняшний день формате — видеоуроков, а также дополненный фото и текстовой информацией.

Данный материал предназначен только для серьёзных людей, которые действительно готовы учиться и применять полученные знания на практике. Информации в курсе достаточно много и большая её часть имеет практическую направленность, поэтому требует тщательной проработки и обязательного практического применения.

Здесь Вы не найдете туманной информации о том «что делать», Вы найдете только то, что отвечает на вопрос «как сделать?»

Курс выдан образом DVD диска. При установке с виртуального диска,все работает. Если у вас нет виртуального диска и вы не знаете,как его поставить, то можно сделать следующее,при условии, что у вас Виндовс 8 и выше. Выделяете файл, правой кнопкой мыши,открыть с помощью, проводник, запускаете autorun.exe, разрешаете внести изменения и будет вам счастье.
Курс весит почти 3,7 Гбайта, учитывайте это при скачаивании.
Спасибо за участие
. Хорошей учебы.

Подробнее:

Скачать: